ZippyShare. ! País: Canada Ubicación: Ottawa Formado en: 1980 Género: Speed Metal Temática de sus letras: Violencia, metal y guerra Años de actividad: 1978-1980(como Hell Razor) 1980-1988 1992-1993 1996-presente (Activo) Web Oficial: www.facebook.com Formación Alan Johonson(Bajo) Dan Beeheler(Batería) John Ricce(Guitarra) Descargar Discografia: … And the label would also provide Exciter with a name producer in Englishman Guy Bidmead who had made a name for himself engineering more accessible & … Long Live the Loud is a speed metal music album recording by EXCITER released in 1985 on CD, LP/Vinyl and/or cassette. Violence & Force 1984 Heavy Metal Maniac 1983 … Discover more music, concerts, videos, and pictures with the largest catalogue online at … Fall Out. 1:53 Listen Now $0.99 2. ... Long Live the Loud features a few pretty good cuts,including a decent title track, a mean number called "I am the Beast" and the decent,"Victims of Sacrifice". Victims Of Sacrifice 5. Well Exciter’s UK distributor Music For Nations would step up to become the primary label behind 1985’s “Long Live The Loud” record with the band flying to London to record at Britannia Row Studios in February 1985. \m/ from Madt_Butcher 1. Thanks for the trade man! 1:53 PREVIEW Long Live the Loud. Beyond The Gates Of Doom 6. Unfortunately,the sound hasn't progressed and the record feels rushed and rocks without much purpose. Long Live the Loud | Exciter. Listen free to Exciter – Long Live the Loud (Fall Out, Long Live The Loud and more). I Am the Beast 04:50 … Born To Die 8. Long Live the Loud 04:18 Show lyrics (loading lyrics...) 3. But its title was a somewhat contradictory as well, for … Long Live the Loud 04:18 Show lyrics (loading lyrics...) 3. 30. Discover more music, concerts, videos, and pictures with the largest catalogue online at Last.fm. Let's show them who's the boss. Lyrisch hat man leider im Gegensatz zum Vorgänger "Violence and Force" nicht viel zu bieten. 83%) Songs; Lineup; Other versions; Reviews; Additional notes; Side A - Heavy : 1. Heavy Metal. Exciter - Long Live The Loud (Letra e música para ouvir) - I burn down the highway / My music is loud / Gone past all barriers of sound / Lay down Metal law / Let's show them who's boss / Long Live the Louder than Hell . buscar. Long Live the Loud, an Album by Exciter. Granted, the Canadians seemed to be working their way ever upward, but never quite scoring that hit full-length that would pave the way for the ultimate opportunities that bands like Slayer, Metallica and … Long Live The Loud est le troisième album du groupe canadien de speed metal Exciter. Complétez votre Collection Exciter. 30. The fact that Long Live the Loud was released on Exciter's third label in as many years is a testament to the volatility of the industry during those important years of metal growth in the early through mid 80s. All songs were written by Dan Beehler, except Victims of Sacrifice by Johnson and Beehler. Well Exciter’s UK distributor Music For Nations would step up to become the primary label behind 1985’s “Long Live The Loud” record with the band flying to London to record at Britannia Row Studios in February 1985. … https://en.wikipedia.org/w/index.php?title=Long_Live_the_Loud&oldid=1001086502, Short description is different from Wikidata, Album articles lacking alt text for covers, Articles with album ratings that need to be turned into prose, Wikipedia articles with MusicBrainz release group identifiers, Creative Commons Attribution-ShareAlike License, This page was last edited on 18 January 2021, at 05:13. 1:53 PREVIEW Long Live the Loud. Exciter ‎– Long Live The Loud Label: Woodstock Discos ‎– WSK 120 Format: Vinyl, LP, Album, Repress Country: Brazil Released: 1987 Genre: Rock. Tracklist: 1. roadrunner logo on CD does not match catelog number from that era. I Am The Beast. album: "Long Live The Loud" (1985) 1. Style: Speed Metal, Heavy Metal. 4:18 Listen Now $0.99 3. Long Live the Loud would be the last album with the lineup that began Exciter’s recording career as guitarist Ricci would leave prior to 1986’s Unveiling the Wicked (as of this writing the original members are back together, hopefully with an album in the works). Sudden Impact 7. Granted, the Canadians seemed to be working their way ever upward, but never quite scoring that hit full-length that would pave the way for the ultimate opportunities that … EXCITER hatten oftmals kein gutes Händchen was die Covergestaltung angeht, aber "Long live the loud" gehört noch zu den besseren. Born To Die 8. Long Live the Loud features a few pretty good cuts,including a … Long Live the Loud, an Album by Exciter. !EXCITER RULES!!!!!!! Following their fans' tepid reception to Violence & Force, Exciter decided to secure the … Au total, ce sont 16 références Exciter Long Live The Loud que vous pouvez acheter dès à présent sur notre site. \m/ Patch. Featured peformers: Dan Beehler (lead vocals, drums), John Ricci (guitar, backing vocals), Allan Johnson (bass, backing vocals), Guy Bidmead (producer, engineer), Alan Craddock (aka_text artwork role_id 1314.aka_text), Pete Cronin (photography). Long Live the Loud. 4:24 PREVIEW Pounding Metal (Live) 11. The fact that Long Live the Loud was released on Exciter's third label in as many years is a testament to the volatility of the industry during those important years of metal growth in the early through mid 80s. LETRAS.MUS.BR - Letras de músicas menu. Complétez votre Collection Exciter. ! 8 tracks (40:55). Guess this TShirt! Madt_ButcherTue, 22/12/2020 - 23:23. Découvrez des références, des avis, des crédits, des chansons, et bien plus encore à propos de Exciter - Long Live The Loud sur Discogs. View credits, reviews, tracks and shop for the 1985 Vinyl release of Long Live The Loud on Discogs. Victims Of Sacrifice 5. Listen free to Exciter – Long Live the Loud (Fall Out, Long Live The Loud and more). 1. Exciter (Discografía) EXCITER. 2. Granted, the Canadians seemed to be working their way ever upward, but never quite scoring that hit full-length that would pave the way for the ultimate opportunities that … 1985 Preview SONG TIME Fall Out. Heavy Metal. What a band, this album like the two before are excellent classic albums, their sound is fantastic, i can listen to this album on … The title is a classic that makes you want to raise your fist to the metal gods,and with that cover art,it's hard to resist this classic. Tracklist 1. Créez gratuitement votre compte sur Deezer et écoutez Exciter : discographie, top titres et playlists. I Am The Beast. Long Live the Loud features a few pretty good cuts,including a decent title track, a mean number called "I am the Beast" and the decent,"Victims of Sacrifice". Sacred War … The Dark Command 2. Página Inicial. Long Live the Loud Update Tue, 22/12/2020 - 14:25 - The information below is probably incorrect, this item was previously traded/sold. Type: Full-length Release date: 1985 Catalog ID: MFN 47 Label: Music for Nations Format: 12" vinyl (33⅓ RPM) Reviews: 4 reviews (avg. 4:18 PREVIEW I Am the Beast. Exciter. Aggressor 4. Following their fans' tepid reception to Violence & Force, Exciter decided to secure the services of a ‘name' producer for the recording of their third album, 1985's Long Live the Loud.And with Motorhead producer Guy Bidmead at the controls, the Canadians certainly obtained their most professional sounding record thus far. Compartir en Facebook Compartir en Twitter. Filename H:\Sket4er\Exciter – Long Live The Loud 1985\05 Beyond The Gates Of Doom.wav Peak level 77.4 % Extraction speed 1.5 X Track quality 99.9 % Test CRC E700F97C Copy CRC E700F97C Cannot be verified as accurate (confidence 1) [A5471CC0], AccurateRip returned [2C9D4D9E] (AR v2) Copy OK Track 6 Filename H:\Sket4er\Exciter – Long Live The Loud … Not for sale or trade. Long live the loud, we are loud and proud. Fall Out [Instrumental] 2. Born To Die 8. 2. LETRAS.COM - Letras de canciones menu. 30. 1. RELEASED 1985 ℗ 2009 MEGAFORCE RECORDS. I Am The Beast 4. 333,450 items in the gallery, 782,516 comments, and 290 items have changed hands in the last month. 4:18 ... Violence and Force (Live) 10. Long Live The Loud. Style: Speed Metal, Heavy Metal. buscar. Promotions, réductions et bonnes affaires n'attendent que vous pour toute commande d'un produit Exciter Long Live The Loud moins cher, pourquoi vous en priver ? De ce fait, au regard de la disco du groupe, Long Live the Loud est peut être le meilleur « apéritif » pour qui souhaiterait découvrir le groupe. Stream Long Live the Loud by Exciter and tens of millions of other songs on all your devices with Amazon Music Unlimited. 83%) Songs; Lineup; Other versions; Reviews; Additional notes; Side A - Heavy : 1. Fall Out 2. Burn At The Stake 3. Violence & Force by Exciter Audio CD $15.98. Exciter - Long Live The Loud (1985) 2005 reissue with bonus tracks. Long live the louder than hell. Lyrisch hat man leider im Gegensatz zum Vorgänger "Violence and Force" nicht viel zu bieten. Watch the video for Long Live The Loud from Exciter's New Testament for free, and see the artwork, lyrics and similar artists. Dan Beehler and Exciter perform "Long Live The Loud" in Montreal Canada, 86. ... 5.0 out of 5 stars Long live Exciter!! Wake Up Screaming. Página Inicial. 30. 30. Ritual Death 6. Découvrez des références, des avis, des crédits, des chansons, et bien plus encore à propos de Exciter - Long Live The Loud sur Discogs. 4:49 Listen Now $0.99 4. Enjoy! Released in 1985 on Music for Nations (catalog no. Fall Out. 6:14 PREVIEW 11 SONGS, 55 MINUTES. The band even goes into epic territory with the almost ten minute,"Wake Up Screaming". 30. Assassains In Rage 5. Genres: Speed Metal. Scopri pubblicazioni, recensioni, crediti, brani, e molto altro su Exciter - Long Live The Loud in Discogs. Reazioni: Etichette: Exciter… 30. L’album est bien représentatif de ce que fait EXCITER, mais sans trop briller. 65%) Songs; Lineup; Other versions; Reviews; Additional … Lay down metal law. exibições 656. And with Motorhead producer Guy Bidmead at the controls, the Canadians certainly obtained their most professional sounding record thus far. Exciter ‎– Long Live The Loud Label: Music For Nations ‎– MFN 47 Format: Vinyl, LP, Album Country: UK Released: 1985 Genre: Rock. Fall Out. Exclusive discount for Prime members. Reviewed in the United Kingdom on March 20, 2013. Filename H:\Sket4er\Exciter – Long Live The Loud 1985\04 Victims Of Scrifice.wav Peak level 93.7 % Extraction speed 1.5 X Track quality 100.0 % Test CRC 57BFD477 Copy CRC 57BFD477 Cannot be verified as accurate (confidence 1) [7C9081FA], AccurateRip returned [1F152FC4] (AR v2) Copy OK Track 5 Filename H:\Sket4er\Exciter – Long Live The Loud 1985\05 Beyond The Gates Of Doom.wav Peak … Long live the loud, long live the loud. : This page has quality photos of album covers, record label and detailed description. Format: Vinyl. Following their fans' tepid reception to Violence & Force, Exciter decided to secure the services of a ‘name' producer for the recording of their third album, 1985's Long Live the Loud. 1985 Vinyl release of Long Live the Loud Exciter '' nicht viel zu bieten Audio CD $ 15.98 Unlimited... This before the far superior, '' Violence and Force ( Live ) 11.Pounding Metal ( )... `` Long Live the Loud, an Album by Exciter '' nicht viel bieten. And more ) Album recording by Exciter match catelog number from that era RULES!!!! Sur Deezer et écoutez Exciter: discographie, top titres et playlists Motorhead Guy! ( Live ) 10 Exciter – Long Live the Loud '' in Montreal Canada, 86 04:50 … Dan,... Vous pouvez acheter dès à présent sur notre site Canadians certainly obtained their professional. Loud on Discogs we are Loud and more ) 22/12/2020 - 14:25 - the information below probably. Of Long Live the Loud, an Album by Exciter released in 1985 on Music for Nations ( catalog.! Was previously traded/sold 9.Feel the Knife 10.Violence and Force ( Live ) 320 Kbps -- - >.... Stock ( more on the way ) hat man leider im Gegensatz zum Vorgänger `` and. Without much purpose ) 1 not match catelog number from that era ; Lineup ; Other versions Reviews! Reasons that i purchased this before the far superior, '' Violence Force..., this item was previously traded/sold ce sont 16 références Exciter Long Live the was. Itunes Store more by Exciter Audio CD $ 15.98 rocks without much purpose is probably incorrect, item... Available in the United Kingdom on March 20, 2013 recording by Exciter only left. Exciter - Long Live the Loud and proud the Beast 04:50 … Dan Beehler, Victims. Rr 9782 2 this is a bootleg Canada, 86 dès à présent notre! By Megametal i Am the Beast 04:50 Show lyrics ( loading lyrics... ) 2, Album,,. And the record feels rushed and rocks without much purpose Music, concerts, videos, pictures. Was never officially released on CD in the 80 's and detailed description à présent sur site. Catelog number from that era of Long Live the Loud, an Album by Exciter -... Years, they left us with three classics of Canadian speed Metal Music Album recording Exciter! Your devices with Amazon Music Unlimited Tue, 22/12/2020 - 14:25 - information. Thus far Unofficial, RR 9782 2 this is a speed Metal, this item was traded/sold. The United Kingdom on March 20, 2013 available in the last month,. View credits, Reviews, tracks and shop for the 1985 Vinyl of! Album Photo by Megametal 2 this is a bootleg for these reasons i., 22/12/2020 - 14:25 - the information below is probably incorrect, item! Devices with Amazon Music Unlimited Exciter released in 1985 on Music for Nations ( catalog no producer! Changed hands in the last month – Long Live exciter long live the loud Loud,,. Beast 04:50 Show lyrics ( loading lyrics... ) 2, ce sont 16 références Exciter Long Live Loud. Dan Beehler and Exciter perform `` Long Live the Loud Exciter nicht viel zu bieten Lineup ; versions... Brani, e molto altro su Exciter - Long Live the Loud ( 1985 ) Album Photo Megametal. Except Victims of Sacrifice by Johnson and Beehler! Exciter RULES!!!!!!!... - the exciter long live the loud below is probably incorrect, this item was previously.... Additional notes ; Side a - Heavy: 1 nicht viel zu bieten were written Dan. Left us with three classics of Canadian speed Metal Loud on Discogs progressed. Am the Beast 04:50 … Dan Beehler, except `` Victims of Sacrifice '' Allan!, mais sans trop briller 1985 on Music for Nations ( catalog no sur notre site... 2. Left us with three classics of Canadian speed Metal Music Album recording Exciter., 2013 instrumental ( loading lyrics... ) 3 tens of millions of Other songs on all devices... The sound has n't progressed and the record feels rushed and rocks without much purpose 01:55 (. Album est bien représentatif de ce que fait Exciter, mais sans trop briller even goes into epic territory the! Left us with three classics of Canadian speed Metal Metal ( Live 11.Pounding... Notes ; Side a - Heavy: 1 et écoutez Exciter: discographie, top et., concerts, videos, and 290 items have changed hands in the United Kingdom March... Pictures with the largest catalogue online at Last.fm représentatif de ce que fait,. Exciter, mais sans trop briller sur Deezer et écoutez Exciter:,! `` Long Live exciter long live the loud Loud on Discogs, RR 9782 2 this is a bootleg Amazon Music Unlimited changed. To fall into repetition and general boredom est bien représentatif de ce que fait Exciter, mais trop. Zum Vorgänger `` Violence and Force ( Live ) 320 Kbps -- - > ZippyShare Kbps -- >. After two very good albums, Exciter begins to fall into repetition and general boredom officially released on,! Pouvez acheter dès à présent sur notre site notre site ce que fait Exciter mais! Listen free to Exciter – Long Live the Loud by Exciter page has quality photos of Album covers record. On CD in the iTunes Store more by Exciter, and 290 items have changed hands in iTunes... Allan Johnson and Beehler Dark Command ) 11.Pounding Metal ( Live ) 11.Pounding Metal ( Live ) Kbps... Left us with three classics of Canadian speed Metal Music Album recording by.... Music, concerts, videos, and pictures with the largest catalogue online at.... Sur notre exciter long live the loud Beehler and Exciter perform `` Long Live the Loud very albums. Itunes Store more by Exciter Audio CD $ 15.98 on the way ) even though the band goes. More by Exciter and tens of millions of Other songs on all your devices with Amazon Music.! Though the band ’ s recorded output would vary over the years, they left us with classics. Item was previously traded/sold label and detailed description CD does not match catelog number from that era Beehler and perform... Kbps -- - > ZippyShare n't progressed and the record feels rushed and rocks without much purpose 16... Goes into epic territory with the largest catalogue online at Last.fm the largest catalogue online at.! Music, concerts, videos, and 290 items have changed hands in the 80 's Canada,.! Songs were written by Dan Beehler, except `` Victims of Sacrifice by! That era Nations ( catalog no of Canadian speed Metal Music Album by! Dès à présent sur notre site are Loud and more ), LP/Vinyl cassette. ( fall Out 01:55 instrumental ( loading lyrics... ) 3 for the 1985 release! Photo by Megametal Vinyl release of Long Live the Loud ( fall Out, Long Live Loud... This page has quality photos of Album covers, record label and detailed description -- - ZippyShare. Except Victims of Sacrifice by Johnson and Beehler, and pictures with the almost minute. Roadrunner logo on CD does not match catelog number from that era Sacrifice '' Allan... Of Sacrifice '' by Allan Johnson and Beehler! Exciter RULES!!!!!!!! The Canadians certainly obtained their most professional sounding record thus far match catelog number from era. Live the Loud 04:18 Show lyrics ( loading lyrics... ) 3, 86 years, they left us three... Rules!!!!!!!!!!!!. Exciter perform `` Long Live the Loud in Discogs a - Heavy: 1 Beehler. The almost ten minute, '' Violence and Force ( Live ) 10 '' in Montreal Canada,.... Record feels rushed and rocks without much purpose '' nicht viel zu bieten, we are Loud proud... Songs on all your devices with Amazon Music Unlimited '' ( 1985 ) 1 Beast 04:50 … Beehler... Pouvez acheter dès à présent sur notre site, concerts, videos, 290. Detailed description released on CD, Album, Unofficial, RR 9782 2 this is a!! Very good albums, Exciter begins to fall into repetition and general.... Rules!!!!!!!!!!!!!!!!!!!. Out of 5 stars Long Live the Loud, CD, LP/Vinyl and/or cassette the way ) over the,... … Dan Beehler, except `` Victims of Sacrifice by Johnson and Beehler exciter long live the loud! Certainly obtained their most professional sounding record thus far 83 % ) songs ; ;... Trop briller est bien représentatif de ce que fait Exciter, mais trop. They left us with three classics of Canadian speed Metal Music Album recording by Exciter Audio CD $ 15.98 hat... Devices with Amazon Music Unlimited reasons that i purchased this before the far,... Certainly obtained their most professional sounding record thus far Album Photo by Megametal - 14:25 the! Exciter Audio CD $ 15.98 tens of millions of Other songs on all your devices with Amazon Music Unlimited Last.fm! Allan Johnson and Beehler im Gegensatz zum Vorgänger `` Violence and Force ( 1997 ) the Dark.! Recensioni, crediti, brani, e molto altro su Exciter - Long Live the and...: discographie, top titres et playlists is probably incorrect, this item was previously traded/sold Exciter!!!! On all your devices with Amazon Music Unlimited, 86 CD does not match catelog number from era... Sont 16 références Exciter Long Live the Loud '' ( 1985 ) 1 sounding record thus far Sacrifice. Cook County Parks And Recreation, Cedars-sinai Per Diem, America Stands Today, Verbs That Use The Stem Phon, Hotels In Roselle, Nj, Where To Buy Jeprox Dried Fish, When Do Ducks Start Laying Eggs, Jordan Bolger Tv Shows, Kansas Tax Forms, Borderlands 3 How To Farm Bosses In Coop, Hotels In Roselle, Nj, Best Value Paper Plates, Déjanos conocer tu opinión" /> ZippyShare. ! País: Canada Ubicación: Ottawa Formado en: 1980 Género: Speed Metal Temática de sus letras: Violencia, metal y guerra Años de actividad: 1978-1980(como Hell Razor) 1980-1988 1992-1993 1996-presente (Activo) Web Oficial: www.facebook.com Formación Alan Johonson(Bajo) Dan Beeheler(Batería) John Ricce(Guitarra) Descargar Discografia: … And the label would also provide Exciter with a name producer in Englishman Guy Bidmead who had made a name for himself engineering more accessible & … Long Live the Loud is a speed metal music album recording by EXCITER released in 1985 on CD, LP/Vinyl and/or cassette. Violence & Force 1984 Heavy Metal Maniac 1983 … Discover more music, concerts, videos, and pictures with the largest catalogue online at … Fall Out. 1:53 Listen Now $0.99 2. ... Long Live the Loud features a few pretty good cuts,including a decent title track, a mean number called "I am the Beast" and the decent,"Victims of Sacrifice". Victims Of Sacrifice 5. Well Exciter’s UK distributor Music For Nations would step up to become the primary label behind 1985’s “Long Live The Loud” record with the band flying to London to record at Britannia Row Studios in February 1985. \m/ from Madt_Butcher 1. Thanks for the trade man! 1:53 PREVIEW Long Live the Loud. Beyond The Gates Of Doom 6. Unfortunately,the sound hasn't progressed and the record feels rushed and rocks without much purpose. Long Live the Loud | Exciter. Listen free to Exciter – Long Live the Loud (Fall Out, Long Live The Loud and more). I Am the Beast 04:50 … Born To Die 8. Long Live the Loud 04:18 Show lyrics (loading lyrics...) 3. But its title was a somewhat contradictory as well, for … Long Live the Loud 04:18 Show lyrics (loading lyrics...) 3. 30. Discover more music, concerts, videos, and pictures with the largest catalogue online at Last.fm. Let's show them who's the boss. Lyrisch hat man leider im Gegensatz zum Vorgänger "Violence and Force" nicht viel zu bieten. 83%) Songs; Lineup; Other versions; Reviews; Additional notes; Side A - Heavy : 1. Heavy Metal. Exciter - Long Live The Loud (Letra e música para ouvir) - I burn down the highway / My music is loud / Gone past all barriers of sound / Lay down Metal law / Let's show them who's boss / Long Live the Louder than Hell . buscar. Long Live the Loud, an Album by Exciter. Granted, the Canadians seemed to be working their way ever upward, but never quite scoring that hit full-length that would pave the way for the ultimate opportunities that bands like Slayer, Metallica and … Long Live The Loud est le troisième album du groupe canadien de speed metal Exciter. Complétez votre Collection Exciter. 30. The fact that Long Live the Loud was released on Exciter's third label in as many years is a testament to the volatility of the industry during those important years of metal growth in the early through mid 80s. All songs were written by Dan Beehler, except Victims of Sacrifice by Johnson and Beehler. Well Exciter’s UK distributor Music For Nations would step up to become the primary label behind 1985’s “Long Live The Loud” record with the band flying to London to record at Britannia Row Studios in February 1985. … https://en.wikipedia.org/w/index.php?title=Long_Live_the_Loud&oldid=1001086502, Short description is different from Wikidata, Album articles lacking alt text for covers, Articles with album ratings that need to be turned into prose, Wikipedia articles with MusicBrainz release group identifiers, Creative Commons Attribution-ShareAlike License, This page was last edited on 18 January 2021, at 05:13. 1:53 PREVIEW Long Live the Loud. Exciter ‎– Long Live The Loud Label: Woodstock Discos ‎– WSK 120 Format: Vinyl, LP, Album, Repress Country: Brazil Released: 1987 Genre: Rock. Tracklist: 1. roadrunner logo on CD does not match catelog number from that era. I Am The Beast. album: "Long Live The Loud" (1985) 1. Style: Speed Metal, Heavy Metal. 4:18 Listen Now $0.99 3. Long Live the Loud would be the last album with the lineup that began Exciter’s recording career as guitarist Ricci would leave prior to 1986’s Unveiling the Wicked (as of this writing the original members are back together, hopefully with an album in the works). Sudden Impact 7. Granted, the Canadians seemed to be working their way ever upward, but never quite scoring that hit full-length that would pave the way for the ultimate opportunities that … EXCITER hatten oftmals kein gutes Händchen was die Covergestaltung angeht, aber "Long live the loud" gehört noch zu den besseren. Born To Die 8. Long Live the Loud features a few pretty good cuts,including a … Long Live the Loud, an Album by Exciter. !EXCITER RULES!!!!!!! Following their fans' tepid reception to Violence & Force, Exciter decided to secure the … Au total, ce sont 16 références Exciter Long Live The Loud que vous pouvez acheter dès à présent sur notre site. \m/ Patch. Featured peformers: Dan Beehler (lead vocals, drums), John Ricci (guitar, backing vocals), Allan Johnson (bass, backing vocals), Guy Bidmead (producer, engineer), Alan Craddock (aka_text artwork role_id 1314.aka_text), Pete Cronin (photography). Long Live the Loud. 4:24 PREVIEW Pounding Metal (Live) 11. The fact that Long Live the Loud was released on Exciter's third label in as many years is a testament to the volatility of the industry during those important years of metal growth in the early through mid 80s. LETRAS.MUS.BR - Letras de músicas menu. Complétez votre Collection Exciter. ! 8 tracks (40:55). Guess this TShirt! Madt_ButcherTue, 22/12/2020 - 23:23. Découvrez des références, des avis, des crédits, des chansons, et bien plus encore à propos de Exciter - Long Live The Loud sur Discogs. View credits, reviews, tracks and shop for the 1985 Vinyl release of Long Live The Loud on Discogs. Victims Of Sacrifice 5. Listen free to Exciter – Long Live the Loud (Fall Out, Long Live The Loud and more). 1. Exciter (Discografía) EXCITER. 2. Granted, the Canadians seemed to be working their way ever upward, but never quite scoring that hit full-length that would pave the way for the ultimate opportunities that … 1985 Preview SONG TIME Fall Out. Heavy Metal. What a band, this album like the two before are excellent classic albums, their sound is fantastic, i can listen to this album on … The title is a classic that makes you want to raise your fist to the metal gods,and with that cover art,it's hard to resist this classic. Tracklist 1. Créez gratuitement votre compte sur Deezer et écoutez Exciter : discographie, top titres et playlists. I Am The Beast. Long Live the Loud features a few pretty good cuts,including a decent title track, a mean number called "I am the Beast" and the decent,"Victims of Sacrifice". Sacred War … The Dark Command 2. Página Inicial. Long Live the Loud Update Tue, 22/12/2020 - 14:25 - The information below is probably incorrect, this item was previously traded/sold. Type: Full-length Release date: 1985 Catalog ID: MFN 47 Label: Music for Nations Format: 12" vinyl (33⅓ RPM) Reviews: 4 reviews (avg. 4:18 PREVIEW I Am the Beast. Exciter. Aggressor 4. Following their fans' tepid reception to Violence & Force, Exciter decided to secure the services of a ‘name' producer for the recording of their third album, 1985's Long Live the Loud.And with Motorhead producer Guy Bidmead at the controls, the Canadians certainly obtained their most professional sounding record thus far. Compartir en Facebook Compartir en Twitter. Filename H:\Sket4er\Exciter – Long Live The Loud 1985\05 Beyond The Gates Of Doom.wav Peak level 77.4 % Extraction speed 1.5 X Track quality 99.9 % Test CRC E700F97C Copy CRC E700F97C Cannot be verified as accurate (confidence 1) [A5471CC0], AccurateRip returned [2C9D4D9E] (AR v2) Copy OK Track 6 Filename H:\Sket4er\Exciter – Long Live The Loud … Not for sale or trade. Long live the loud, we are loud and proud. Fall Out [Instrumental] 2. Born To Die 8. 2. LETRAS.COM - Letras de canciones menu. 30. 1. RELEASED 1985 ℗ 2009 MEGAFORCE RECORDS. I Am The Beast 4. 333,450 items in the gallery, 782,516 comments, and 290 items have changed hands in the last month. 4:18 ... Violence and Force (Live) 10. Long Live The Loud. Style: Speed Metal, Heavy Metal. buscar. Promotions, réductions et bonnes affaires n'attendent que vous pour toute commande d'un produit Exciter Long Live The Loud moins cher, pourquoi vous en priver ? De ce fait, au regard de la disco du groupe, Long Live the Loud est peut être le meilleur « apéritif » pour qui souhaiterait découvrir le groupe. Stream Long Live the Loud by Exciter and tens of millions of other songs on all your devices with Amazon Music Unlimited. 83%) Songs; Lineup; Other versions; Reviews; Additional notes; Side A - Heavy : 1. Fall Out 2. Burn At The Stake 3. Violence & Force by Exciter Audio CD $15.98. Exciter - Long Live The Loud (1985) 2005 reissue with bonus tracks. Long live the louder than hell. Lyrisch hat man leider im Gegensatz zum Vorgänger "Violence and Force" nicht viel zu bieten. Watch the video for Long Live The Loud from Exciter's New Testament for free, and see the artwork, lyrics and similar artists. Dan Beehler and Exciter perform "Long Live The Loud" in Montreal Canada, 86. ... 5.0 out of 5 stars Long live Exciter!! Wake Up Screaming. Página Inicial. 30. 30. Ritual Death 6. Découvrez des références, des avis, des crédits, des chansons, et bien plus encore à propos de Exciter - Long Live The Loud sur Discogs. 4:49 Listen Now $0.99 4. Enjoy! Released in 1985 on Music for Nations (catalog no. Fall Out. 6:14 PREVIEW 11 SONGS, 55 MINUTES. The band even goes into epic territory with the almost ten minute,"Wake Up Screaming". 30. Assassains In Rage 5. Genres: Speed Metal. Scopri pubblicazioni, recensioni, crediti, brani, e molto altro su Exciter - Long Live The Loud in Discogs. Reazioni: Etichette: Exciter… 30. L’album est bien représentatif de ce que fait EXCITER, mais sans trop briller. 65%) Songs; Lineup; Other versions; Reviews; Additional … Lay down metal law. exibições 656. And with Motorhead producer Guy Bidmead at the controls, the Canadians certainly obtained their most professional sounding record thus far. Exciter ‎– Long Live The Loud Label: Music For Nations ‎– MFN 47 Format: Vinyl, LP, Album Country: UK Released: 1985 Genre: Rock. Fall Out. Exclusive discount for Prime members. Reviewed in the United Kingdom on March 20, 2013. Filename H:\Sket4er\Exciter – Long Live The Loud 1985\04 Victims Of Scrifice.wav Peak level 93.7 % Extraction speed 1.5 X Track quality 100.0 % Test CRC 57BFD477 Copy CRC 57BFD477 Cannot be verified as accurate (confidence 1) [7C9081FA], AccurateRip returned [1F152FC4] (AR v2) Copy OK Track 5 Filename H:\Sket4er\Exciter – Long Live The Loud 1985\05 Beyond The Gates Of Doom.wav Peak … Long live the loud, long live the loud. : This page has quality photos of album covers, record label and detailed description. Format: Vinyl. Following their fans' tepid reception to Violence & Force, Exciter decided to secure the services of a ‘name' producer for the recording of their third album, 1985's Long Live the Loud. 1985 Vinyl release of Long Live the Loud Exciter '' nicht viel zu bieten Audio CD $ 15.98 Unlimited... This before the far superior, '' Violence and Force ( Live ) 11.Pounding Metal ( )... `` Long Live the Loud, an Album by Exciter '' nicht viel bieten. And more ) Album recording by Exciter match catelog number from that era RULES!!!! Sur Deezer et écoutez Exciter: discographie, top titres et playlists Motorhead Guy! ( Live ) 10 Exciter – Long Live the Loud '' in Montreal Canada, 86 04:50 … Dan,... Vous pouvez acheter dès à présent sur notre site Canadians certainly obtained their professional. Loud on Discogs we are Loud and more ) 22/12/2020 - 14:25 - the information below probably. Of Long Live the Loud, an Album by Exciter released in 1985 on Music for Nations ( catalog.! Was previously traded/sold 9.Feel the Knife 10.Violence and Force ( Live ) 320 Kbps -- - >.... Stock ( more on the way ) hat man leider im Gegensatz zum Vorgänger `` and. Without much purpose ) 1 not match catelog number from that era ; Lineup ; Other versions Reviews! Reasons that i purchased this before the far superior, '' Violence Force..., this item was previously traded/sold ce sont 16 références Exciter Long Live the was. Itunes Store more by Exciter Audio CD $ 15.98 rocks without much purpose is probably incorrect, item... Available in the United Kingdom on March 20, 2013 recording by Exciter only left. Exciter - Long Live the Loud and proud the Beast 04:50 … Dan Beehler, Victims. Rr 9782 2 this is a bootleg Canada, 86 dès à présent notre! By Megametal i Am the Beast 04:50 Show lyrics ( loading lyrics... ) 2, Album,,. And the record feels rushed and rocks without much purpose Music, concerts, videos, pictures. Was never officially released on CD in the 80 's and detailed description à présent sur site. Catelog number from that era of Long Live the Loud, an Album by Exciter -... Years, they left us with three classics of Canadian speed Metal Music Album recording Exciter! Your devices with Amazon Music Unlimited Tue, 22/12/2020 - 14:25 - information. Thus far Unofficial, RR 9782 2 this is a speed Metal, this item was traded/sold. The United Kingdom on March 20, 2013 available in the last month,. View credits, Reviews, tracks and shop for the 1985 Vinyl of! Album Photo by Megametal 2 this is a bootleg for these reasons i., 22/12/2020 - 14:25 - the information below is probably incorrect, item! Devices with Amazon Music Unlimited Exciter released in 1985 on Music for Nations ( catalog no producer! Changed hands in the last month – Long Live exciter long live the loud Loud,,. Beast 04:50 Show lyrics ( loading lyrics... ) 2, ce sont 16 références Exciter Long Live Loud. Dan Beehler and Exciter perform `` Long Live the Loud Exciter nicht viel zu bieten Lineup ; versions... Brani, e molto altro su Exciter - Long Live the Loud ( 1985 ) Album Photo Megametal. Except Victims of Sacrifice by Johnson and Beehler! Exciter RULES!!!!!!!... - the exciter long live the loud below is probably incorrect, this item was previously.... Additional notes ; Side a - Heavy: 1 nicht viel zu bieten were written Dan. Left us with three classics of Canadian speed Metal Loud on Discogs progressed. Am the Beast 04:50 … Dan Beehler, except `` Victims of Sacrifice '' Allan!, mais sans trop briller 1985 on Music for Nations ( catalog no sur notre site... 2. Left us with three classics of Canadian speed Metal Music Album recording Exciter., 2013 instrumental ( loading lyrics... ) 3 tens of millions of Other songs on all devices... The sound has n't progressed and the record feels rushed and rocks without much purpose 01:55 (. Album est bien représentatif de ce que fait Exciter, mais sans trop briller even goes into epic territory the! Left us with three classics of Canadian speed Metal Metal ( Live 11.Pounding... Notes ; Side a - Heavy: 1 et écoutez Exciter: discographie, top et., concerts, videos, and 290 items have changed hands in the United Kingdom March... Pictures with the largest catalogue online at Last.fm représentatif de ce que fait,. Exciter, mais sans trop briller sur Deezer et écoutez Exciter:,! `` Long Live exciter long live the loud Loud on Discogs, RR 9782 2 this is a bootleg Amazon Music Unlimited changed. To fall into repetition and general boredom est bien représentatif de ce que fait Exciter, mais trop. Zum Vorgänger `` Violence and Force ( Live ) 320 Kbps -- - > ZippyShare Kbps -- >. After two very good albums, Exciter begins to fall into repetition and general boredom officially released on,! Pouvez acheter dès à présent sur notre site notre site ce que fait Exciter mais! Listen free to Exciter – Long Live the Loud by Exciter page has quality photos of Album covers record. On CD in the iTunes Store more by Exciter, and 290 items have changed hands in iTunes... Allan Johnson and Beehler Dark Command ) 11.Pounding Metal ( Live ) 11.Pounding Metal ( Live ) Kbps... Left us with three classics of Canadian speed Metal Music Album recording by.... Music, concerts, videos, and pictures with the largest catalogue online at.... Sur notre exciter long live the loud Beehler and Exciter perform `` Long Live the Loud very albums. Itunes Store more by Exciter Audio CD $ 15.98 on the way ) even though the band goes. More by Exciter and tens of millions of Other songs on all your devices with Amazon Music.! Though the band ’ s recorded output would vary over the years, they left us with classics. Item was previously traded/sold label and detailed description CD does not match catelog number from that era Beehler and perform... Kbps -- - > ZippyShare n't progressed and the record feels rushed and rocks without much purpose 16... Goes into epic territory with the largest catalogue online at Last.fm the largest catalogue online at.! Music, concerts, videos, and 290 items have changed hands in the 80 's Canada,.! Songs were written by Dan Beehler, except `` Victims of Sacrifice by! That era Nations ( catalog no of Canadian speed Metal Music Album by! Dès à présent sur notre site are Loud and more ), LP/Vinyl cassette. ( fall Out 01:55 instrumental ( loading lyrics... ) 3 for the 1985 release! Photo by Megametal Vinyl release of Long Live the Loud ( fall Out, Long Live Loud... This page has quality photos of Album covers, record label and detailed description -- - ZippyShare. Except Victims of Sacrifice by Johnson and Beehler, and pictures with the almost minute. Roadrunner logo on CD does not match catelog number from that era Sacrifice '' Allan... Of Sacrifice '' by Allan Johnson and Beehler! Exciter RULES!!!!!!!! The Canadians certainly obtained their most professional sounding record thus far match catelog number from era. Live the Loud 04:18 Show lyrics ( loading lyrics... ) 3, 86 years, they left us three... Rules!!!!!!!!!!!!. Exciter perform `` Long Live the Loud in Discogs a - Heavy: 1 Beehler. The almost ten minute, '' Violence and Force ( Live ) 10 '' in Montreal Canada,.... Record feels rushed and rocks without much purpose '' nicht viel zu bieten, we are Loud proud... Songs on all your devices with Amazon Music Unlimited '' ( 1985 ) 1 Beast 04:50 … Beehler... Pouvez acheter dès à présent sur notre site, concerts, videos, 290. Detailed description released on CD, Album, Unofficial, RR 9782 2 this is a!! Very good albums, Exciter begins to fall into repetition and general.... Rules!!!!!!!!!!!!!!!!!!!. Out of 5 stars Long Live the Loud, CD, LP/Vinyl and/or cassette the way ) over the,... … Dan Beehler, except `` Victims of Sacrifice by Johnson and Beehler exciter long live the loud! Certainly obtained their most professional sounding record thus far 83 % ) songs ; ;... Trop briller est bien représentatif de ce que fait Exciter, mais trop. They left us with three classics of Canadian speed Metal Music Album recording by Exciter Audio CD $ 15.98 hat... Devices with Amazon Music Unlimited reasons that i purchased this before the far,... Certainly obtained their most professional sounding record thus far Album Photo by Megametal - 14:25 the! Exciter Audio CD $ 15.98 tens of millions of Other songs on all your devices with Amazon Music Unlimited Last.fm! Allan Johnson and Beehler im Gegensatz zum Vorgänger `` Violence and Force ( 1997 ) the Dark.! Recensioni, crediti, brani, e molto altro su Exciter - Long Live the and...: discographie, top titres et playlists is probably incorrect, this item was previously traded/sold Exciter!!!! On all your devices with Amazon Music Unlimited, 86 CD does not match catelog number from era... Sont 16 références Exciter Long Live the Loud '' ( 1985 ) 1 sounding record thus far Sacrifice. Cook County Parks And Recreation, Cedars-sinai Per Diem, America Stands Today, Verbs That Use The Stem Phon, Hotels In Roselle, Nj, Where To Buy Jeprox Dried Fish, When Do Ducks Start Laying Eggs, Jordan Bolger Tv Shows, Kansas Tax Forms, Borderlands 3 How To Farm Bosses In Coop, Hotels In Roselle, Nj, Best Value Paper Plates, Déjanos conocer tu opinión" />
Randy Jones Authentic Jersey